TV Shows

Excel Saga S01e13 16 Divx Ita Mp3 Pack 4 Di 6

  • Download 5x Faster
  • Download torrent
  • Direct Download
  • Rate this torrent +  |  -
Excel Saga S01e13 16 Divx Ita Mp3 Pack 4 Di 6

Download FREE And Anonymously


Torrent info

Name:Excel Saga S01e13 16 Divx Ita Mp3 Pack 4 Di 6

Total Size: 1.00 GB

Magnet: Magnet Link

Seeds: 10

Leechers: 44

Stream: Watch Full Movie @ Movie4u

Last Updated: 0000-00-00 00:00:00 (Update Now)

Torrent added: 2010-11-25 14:08:13



CyberGhost VPN For Torrents

Torrent Files List


 

Announce URL: http://tracker.tntvillage.scambioetico.org:2710/announce

Torrent description

info: http://forum.tntvillage.scambioetico.org/tntforum/index.php?showtopic=230987



gubdtmch9o2d45zllsmc.jpg



Titolo originale:Heppoko Jikken Animēshon Ekuseru Sāga

Autore: Koshi Rikdo

Regia: Shinichi Watanabe

Character design: Satoshi Ishino

Studio: J.C.Staff

Musiche: Toshio Masuda

Rete: TV Tokyo

1ª TV: 7 ottobre 1999 – 30 marzo 2000

Episodi: 26 (completa)

Durata ep.: 24

Reti italiane: MTV, Cooltoon

1ª TV it.: 10 aprile 2001




nxxzpsq1ttzg50f6k03x.jpg



L'anime di Excel Saga è una continua satira della vita e della cultura giapponese, e fa il verso a numerose serie di film, videogiochi e anime come: Sailor Moon, Dragon Ball, Superman, Doraemon, Ken il guerriero, Resident Evil, Lupin III, Mobile Suit Gundam, Capitan Harlock, Star Blazers, Alien, Love Hina, Galaxy Express 999, Topolino, Rambo e Guerre Stellari.

Anche il manga ha moltissime citazioni anche se non in chiave sarcastica come la serie animata. Per fare un esempio, l'aspetto di Nabeshin (alter-ego del regista)ha una chiara ispirazione al personaggio di Lupin III (di cui ha anche lo stesso doppiatore italiano, Roberto Del Giudice).

L'anime a volte prende particolarmente le distanze dal manga. Il manga stesso si rifà a Municipal Force Daitenjin[5], un dojinshi di Koshi Rikudo.

Il regista ha anche diretto uno spin-off, intitolatoPuni Puni Poemi che vede come protagonista Poemi, la figlia di Nabeshin

Sia il manga che l'anime seguono da vicino l'ACROSS, Organizzazione Segreta per la Propulsione dell’Ideale, società che mira alla conquista del mondo. La campagna di conquista parte dalla Città F (Fukuoka), della Prefettura F (prefettura di Fukuoka), in cui si trova la sede in cui opera Sua Eccellenza Il Palazzo, Suo Comandante Supremo.

L'ACROSS inizialmente è composto soltanto da Sua Eccellenza Il Palazzo e Excel, una ragazza iperattiva e super determinata innamorata perdutamente di lui. Successivamente si unirà a loro Hyatt, una ragazza nell’anime di origine extraterrestre più intelligente della sua compagna ma con l'insana abitudine di morire continuamente. Nel fumetto l’origine di Hyatt è ancora sconosciuta, ma presumibilemente quantomeno non naturale… In ogni episodio a Excel e Hyatt viene assegnata una particolare missione per mettere in ginocchio la città, missioni che generalmente non riescono a portare a termine, compromettendo il piano di conquista. Accompagnate solitamente da Frattaglia (Menchi), il loro cane, che serve anche come cibo di emergenza, al di fuori delle missioni devono condurre una vita normale e cambiano spesso lavoro (solitamente non hanno mai abbastanza soldi da permettersi una cena dignitosa). Nel fumetto, con l’arrivo di Elgarla, il Palazzo assegna loro un cospicuo capitale per le loro spese, permettendo così di limitare "l’approvvigionamento sul campo". in seguito a (s)fortunati eventi, anche il loro domicilio passa da misero monolocale ad attrezzato e moderno bilocale.

La maggior parte dell'azione si svolge tra ACROSS e la Squadra Comunal-Combattente, votata all'ordine cittadino. In ogni episodio dell'anime compare Pedro, protagonista Sud Americano di una sotto trama che non ha praticamente nulla a che fare con la storia principale, se non il cattivo finale, ovvero il signor Quell'uomo (leader dell'ACROSS). Questi personaggi non hanno nessuna partecipazione e connessione col fumetto, in cui Il Palazzo è il Comandante Supremo dell’ACROSS.

Non c'è continuità tra un episodio e l'altro, se non alla fine, e il ventiseiesimo episodio, mai trasmesso in televisione, costituisce un epilogo quasi hentai, parodiando la stessa serie (il tema della puntata è, appunto, tutto ciò che è politically incorrect).



ptimefc05bbtnplaj0rj.jpg



General

Complete name : 3XC3L S4G4 - 14.avi

Format : AVI

Format/Info : Audio Video Interleave

File size : 209 MiB

Duration : 24mn 18s

Overall bit rate : 1 201 Kbps

Writing application : Nandub v1.0rc2

Writing library : Nandub build 1853/release



Video

ID : 0

Format : MPEG-4 Visual

Format settings, BVOP : Yes

Format settings, QPel : No

Format settings, GMC : No warppoints

Format settings, Matrix : Default (H.263)

Muxing mode : Packed bitstream

Codec ID : DX50

Codec ID/Hint : DivX 5

Duration : 24mn 18s

Bit rate : 1 070 Kbps

Width : 512 pixels

Height : 384 pixels

Display aspect ratio : 4:3

Frame rate : 25.000 fps

Color space : YUV

Chroma subsampling : 4:2:0

Bit depth : 8 bits

Scan type : Progressive

Bits/(Pixel*Frame) : 0.218

Stream size : 186 MiB (89%)

Writing library : DivX 5.0.2 (UTC 2002-05-16)



Audio

ID : 1

Format : MPEG Audio

Format version : Version 1

Format profile : Layer 3

Mode : Joint stereo

Mode extension : MS Stereo

Codec ID : 55

Codec ID/Hint : MP3

Duration : 24mn 18s

Bit rate mode : Variable

Bit rate : 119 Kbps

Channel(s) : 2 channels

Sampling rate : 48.0 KHz

Stream size : 20.5 MiB (10%)

Alignment : Aligned on interleaves

Interleave, duration : 24 ms (0.60 video frame)

Interleave, preload duration : 464 ms





u7gezaii49w91i1k2q.jpg



thumbs20101122223423.jpg

related torrents

Torrent name

health leech seeds Size
 


comments (0)

Main Menu